Jump to content
Sign in to follow this  
Sanchez

What was the last movie that you watched?

Recommended Posts

Me the last movie i think the I Frankenstein

not bad but i not enjoyed so much! :D

 

Ps.: Srry 4 my horrible english, i'm not English.

  • Love 1

Share this post


Link to post
Guest

Frozen on blu ray.

Share this post


Link to post

7ArZF.jpg

Media Info's 

 

 

Part1 

 

General
Complete name                            : F:Farscape The Peacekeeper WarsThe Peacekeeper Wars  720P Part1.mp4
Format                                   : MPEG-4
Format profile                           : Base Media / Version 2
Codec ID                                 : mp42
File size                                : 800 MiB
Duration                                 : 1h 28mn
Overall bit rate mode                    : Variable
Overall bit rate                         : 1 268 Kbps
Encoded date                             : UTC 2013-11-13 17:16:38
Tagged date                              : UTC 2013-11-13 18:19:03
Writing application                      : HandBrake 0.9.5 2011010300
 
Video
ID                                       : 1
Format                                   : AVC
Format/Info                              : Advanced Video Codec
Format profile                           : Main@L3.1
Format settings, CABAC                   : Yes
Format settings, ReFrames                : 4 frames
Codec ID                                 : avc1
Codec ID/Info                            : Advanced Video Coding
Duration                                 : 1h 28mn
Bit rate mode                            : Variable
Bit rate                                 : 1 168 Kbps
Width                                    : 1 280 pixels
Height                                   : 720 pixels
Display aspect ratio                     : 16:9
Frame rate mode                          : Constant
Frame rate                               : 25.000 fps
Color space                              : YUV
Chroma subsampling                       : 4:2:0
Bit depth                                : 8 bits
Scan type                                : Progressive
Bits/(Pixel*Frame)                       : 0.051
Stream size                              : 737 MiB (92%)
Writing library                          : x264 core 112
Encoding settings                        : cabac=1 / ref=3 / deblock=1:0:0 / analyse=0x1:0x111 / me=hex / subme=6 / psy=1 / psy_rd=1.00:0.00 / mixed_ref=0 / me_range=16 / chroma_me=1 / trellis=0 / 8x8dct=0 / cqm=0 / deadzone=21,11 / fast_pskip=1 / chroma_qp_offset=-2 / threads=6 / sliced_threads=0 / nr=0 / decimate=1 / interlaced=0 / constrained_intra=0 / bframes=3 / b_pyramid=2 / b_adapt=1 / b_bias=0 / direct=1 / weightb=0 / open_gop=0 / weightp=2 / keyint=250 / keyint_min=25 / scenecut=40 / intra_refresh=0 / rc_lookahead=40 / rc=2pass / mbtree=1 / bitrate=1168 / ratetol=1.0 / qcomp=0.60 / qpmin=3 / qpmax=51 / qpstep=4 / cplxblur=20.0 / qblur=0.5 / ip_ratio=1.40 / aq=1:1.00
Encoded date                             : UTC 2013-11-13 17:16:38
Tagged date                              : UTC 2013-11-13 18:19:03
Color primaries                          : BT.709
Transfer characteristics                 : BT.709
Matrix coefficients                      : BT.709
 
Audio
ID                                       : 2
Format                                   : AAC
Format/Info                              : Advanced Audio Codec
Format profile                           : LC
Codec ID                                 : 40
Duration                                 : 1h 28mn
Bit rate mode                            : Variable
Bit rate                                 : 96.0 Kbps
Maximum bit rate                         : 122 Kbps
Channel(s)                               : 2 channels
Channel positions                        : Front: L R
Sampling rate                            : 48.0 KHz
Compression mode                         : Lossy
Delay relative to video                  : 80ms
Stream size                              : 60.4 MiB (8%)
Language                                 : English
Encoded date                             : UTC 2013-11-13 17:16:38
Tagged date                              : UTC 2013-11-13 18:19:03
 
Part2
 
General
Complete name                            : F:Farscape The Peacekeeper WarsThe Peacekeeper Wars  720P Part2.mp4
Format                                   : MPEG-4
Format profile                           : Base Media / Version 2
Codec ID                                 : mp42
File size                                : 799 MiB
Duration                                 : 1h 28mn
Overall bit rate mode                    : Variable
Overall bit rate                         : 1 267 Kbps
Encoded date                             : UTC 2013-11-13 18:56:49
Tagged date                              : UTC 2013-11-13 20:01:22
Writing application                      : HandBrake 0.9.5 2011010300
 
Video
ID                                       : 1
Format                                   : AVC
Format/Info                              : Advanced Video Codec
Format profile                           : Main@L3.1
Format settings, CABAC                   : Yes
Format settings, ReFrames                : 4 frames
Codec ID                                 : avc1
Codec ID/Info                            : Advanced Video Coding
Duration                                 : 1h 28mn
Bit rate mode                            : Variable
Bit rate                                 : 1 168 Kbps
Width                                    : 1 280 pixels
Height                                   : 720 pixels
Display aspect ratio                     : 16:9
Frame rate mode                          : Constant
Frame rate                               : 25.000 fps
Color space                              : YUV
Chroma subsampling                       : 4:2:0
Bit depth                                : 8 bits
Scan type                                : Progressive
Bits/(Pixel*Frame)                       : 0.051
Stream size                              : 736 MiB (92%)
Writing library                          : x264 core 112
Encoding settings                        : cabac=1 / ref=3 / deblock=1:0:0 / analyse=0x1:0x111 / me=hex / subme=6 / psy=1 / psy_rd=1.00:0.00 / mixed_ref=0 / me_range=16 / chroma_me=1 / trellis=0 / 8x8dct=0 / cqm=0 / deadzone=21,11 / fast_pskip=1 / chroma_qp_offset=-2 / threads=6 / sliced_threads=0 / nr=0 / decimate=1 / interlaced=0 / constrained_intra=0 / bframes=3 / b_pyramid=2 / b_adapt=1 / b_bias=0 / direct=1 / weightb=0 / open_gop=0 / weightp=2 / keyint=250 / keyint_min=25 / scenecut=40 / intra_refresh=0 / rc_lookahead=40 / rc=2pass / mbtree=1 / bitrate=1168 / ratetol=1.0 / qcomp=0.60 / qpmin=3 / qpmax=51 / qpstep=4 / cplxblur=20.0 / qblur=0.5 / ip_ratio=1.40 / aq=1:1.00
Encoded date                             : UTC 2013-11-13 18:56:49
Tagged date                              : UTC 2013-11-13 20:01:21
Color primaries                          : BT.709
Transfer characteristics                 : BT.709
Matrix coefficients                      : BT.709
 
Audio
ID                                       : 2
Format                                   : AAC
Format/Info                              : Advanced Audio Codec
Format profile                           : LC
Codec ID                                 : 40
Duration                                 : 1h 28mn
Bit rate mode                            : Variable
Bit rate                                 : 96.0 Kbps
Maximum bit rate                         : 124 Kbps
Channel(s)                               : 2 channels
Channel positions                        : Front: L R
Sampling rate                            : 48.0 KHz
Compression mode                         : Lossy
Delay relative to video                  : 80ms
Stream size                              : 60.4 MiB (8%)
Language                                 : English
Encoded date                             : UTC 2013-11-13 18:56:49
Tagged date                              : UTC 2013-11-13 20:01:21
 
 

  • Love 1

Share this post


Link to post

I really recommend Flowers in the Attic.

 

But my favourite movie ever was Yip man. (all)

 

Regards

  • Love 1

Share this post


Link to post

47 ronin, Not quite what I was expecting, but still not bad.

  • Love 1

Share this post


Link to post

The title says everything, what's your last movie? Today morning I watched the Blue Is the Warmest Color movie and I really enjoyed it.

Tried to watch that about a month ago and couldn't get into it..

 

Me the last movie i think the I Frankenstein

not bad but i not enjoyed so much! :D

 

Ps.: Srry 4 my horrible english, i'm not English.

Try this one: http://www.imdb.com/title/tt0072431/?ref_=ttqt_qt_tt

  • Love 2

Share this post


Link to post

Currently I am watching the Trasnformers trilogy because the 4th episode is coming and I do not remember the story :D

 

The last movie what I saw the (Booooring)"Gravity".

 

  • Love 2

Share this post


Link to post

Currently I am watching the Trasnformers trilogy because the 4th episode is coming and I do not remember the story :D

 

The last movie what I saw the (Booooring)"Gravity".

hahaha, me too :D

 

I now finished Transformes full series and wait 4th.. :)

 

I started watch tv series : http://www.imdb.com/title/tt0105946/

  • Love 2

Share this post


Link to post

The last movie I watched was Project X. Sincerely I've to watch some new movies.

Share this post


Link to post

Create an account or sign in to comment

You need to be a member in order to leave a comment

Create an account

Sign up for a new account in our community. It's easy!

Register a new account

Sign in

Already have an account? Sign in here.

Sign In Now
Sign in to follow this  
  • Recently Browsing   0 members

    No registered users viewing this page.

×
×
  • Create New...

Important Information

Terms of Use / Privacy Policy / Guidelines / We have placed cookies on your device to help make this website better. You can adjust your cookie settings, otherwise we'll assume you're okay to continue.